TAMILMOVIEROCKERS
Ticket Torrents

BitCoin Donation Here

BTC Donation : 15YBdAuhfkPPR3fVYnQa8DT4WL6SWaT6Y5

Bitcoin Cash : qpc945q8q6jdzt4d43jye03r6a8q978qlcy5fawg88

Go Back   TAMILMOVIEROCKERS > -: Other Releases :- > Hindi Releases - (Free Leech) > Web HD/ Rips
Reload this Page Family Man S1 Complete (2019)[1080p [Tamil + Telugu + Hindi + Eng] - DDP5.1 - 23GB]
Reply
 
Thread Tools Display Modes
(#1)
Old
Shan8205 Shan8205 is offline
TMR Member
Points: 1,122, Level: 8
Points: 1,122, Level: 8 Points: 1,122, Level: 8 Points: 1,122, Level: 8
Level up: 86%, 28 Points needed
Level up: 86% Level up: 86% Level up: 86%
Activity: 99.7%
Activity: 99.7% Activity: 99.7% Activity: 99.7%

I proudly released 14 torrents with 72 snatches
 
 
Join Date: Jun 2018
Posts: 206
Rep Power: 2
Shan8205 will become famous soon enough
UL: 149.49 gb DL: 152.18 gb Ratio: 0.98
My Mood: Amazed
HDTV Family Man S1 Complete (2019)[1080p [Tamil + Telugu + Hindi + Eng] - DDP5.1 - 23GB] - 1 Week Ago

Family Man S1 Complete (2019)[1080p HD AVC [Tamil + Telugu + Hindi + Eng] - DDP5.1 - 23GB - ESubs]
Format : Matroska
Format version : Version 4 / Version 2
Overall bit rate : 7 672 Kbps


Video
ID : 1
Format : AVC
Format/Info : Advanced Video Codec
Format profile : High@L4.0
Format settings, CABAC : Yes
Format settings, ReFrames : 4 frames
Codec ID : V_MPEG4/ISO/AVC
Bit rate : 4 960 Kbps
Width : 1 920 pixels
Height : 1 080 pixels
Display aspect ratio : 16:9
Frame rate mode : Constant
Frame rate : 23.976 fps
Color space : YUV
Chroma subsampling : 4:2:0
Bit depth : 8 bits
Scan type : Progressive
Bits/(Pixel*Frame) : 0.100
Stream size : 1.85 GiB (65%)
Default : Yes
Forced : No
Color primaries : BT.709
Transfer characteristics : BT.709
Matrix coefficients : BT.709

Audio #1
ID : 2
Format : E-AC-3
Format/Info : Audio Coding 3
Format settings, Endianness : Big
Codec ID : A_EAC3
Duration : 53mn 18s
Bit rate mode : Constant
Bit rate : 640 Kbps
Channel count : 6 channels
Channel positions : Front: L C R, Side: L R, LFE
Sampling rate : 48.0 KHz
Compression mode : Lossy
Stream size : 244 MiB (8%)
Language : Tamil
Default : Yes
Forced : Yes

Audio #2
ID : 3
Format : E-AC-3
Format/Info : Audio Coding 3
Format settings, Endianness : Big
Codec ID : A_EAC3
Duration : 53mn 18s
Bit rate mode : Constant
Bit rate : 640 Kbps
Channel count : 6 channels
Channel positions : Front: L C R, Side: L R, LFE
Sampling rate : 48.0 KHz
Compression mode : Lossy
Stream size : 244 MiB (8%)
Language : Telugu
Default : No
Forced : No

Audio #3
ID : 4
Format : E-AC-3
Format/Info : Audio Coding 3
Format settings, Endianness : Big
Codec ID : A_EAC3
Duration : 53mn 18s
Bit rate mode : Constant
Bit rate : 640 Kbps
Channel count : 6 channels
Channel positions : Front: L C R, Side: L R, LFE
Sampling rate : 48.0 KHz
Compression mode : Lossy
Stream size : 244 MiB (8%)
Language : Hindi
Default : No
Forced : No

Audio #4
ID : 5
Format : E-AC-3
Format/Info : Audio Coding 3
Format settings, Endianness : Big
Codec ID : A_EAC3
Duration : 53mn 18s
Bit rate mode : Constant
Bit rate : 640 Kbps
Channel count : 6 channels
Channel positions : Front: L C R, Side: L R, LFE
Sampling rate : 48.0 KHz
Compression mode : Lossy
Stream size : 244 MiB (8%)
Language : English
Default : No
Forced : No

Text
ID : 6
Format : UTF-8
Codec ID : S_TEXT/UTF8
Codec ID/Info : UTF-8 Plain Text
Title : English [Forced]
Language : English
Default : No
Forced : Yes
Attached Files
File Type: torrent Family Man S1 Complete (2019)[1080p HD AVC [Tamil + Telugu + Hindi + Eng] - DDP5.1 - 23GB - .torrent (236.5 KB, 3 views), size: 23.57 gb
Name Size




The Following 3 Users Say Thank You to Shan8205 For This Useful Post:

5 Lastest Threads by Shan8205
Thread Forum Last Poster Replies Views Last Post
Nani's Gang Leader (2019)[Telugu - 1080p -DDP 5.1... Web HD/ Rips Anwar1234 5 70 13th-October-2019 04:55 AM
Kolaiyuthir Kaalam (2019)[Proper Tamil - 1080p HD... Web HD/ Rips (Free Leech) Anwar1234 4 45 13th-October-2019 04:48 AM
Super Duper (2019) 1080p HD - MP4 - DD 5.1 -... Web HD/ Rips (Free Leech) Anwar1234 14 301 6th-October-2019 08:08 AM
Minnale (2001) DVDRip - HD - 1080P - x264 - AVC -... Web HD/ Rips (Free Leech) Infant58 13 253 4th-October-2019 02:20 PM
Sindhubaadh (2019) Tamil 1080p HD AVC MP4 2GB Web HD/ Rips (Free Leech) Krnara 10 149 4th-October-2019 02:12 PM

(#2)
Old
Kadirmoha Kadirmoha is offline
TMR Member
Points: 1,837, Level: 11
Points: 1,837, Level: 11 Points: 1,837, Level: 11 Points: 1,837, Level: 11
Level up: 96%, 13 Points needed
Level up: 96% Level up: 96% Level up: 96%
Activity: 25.0%
Activity: 25.0% Activity: 25.0% Activity: 25.0%

   
Join Date: Dec 2017
Posts: 317
Rep Power: 2
Kadirmoha will become famous soon enough
UL: 25.25 gb DL: 27.22 gb Ratio: 0.93
Default 1 Week Ago

thanks jii...




Reply With Quote
(#3)
Old
Emet Emet is offline
TMR Member
Points: 6,038, Level: 22
Points: 6,038, Level: 22 Points: 6,038, Level: 22 Points: 6,038, Level: 22
Level up: 98%, 12 Points needed
Level up: 98% Level up: 98% Level up: 98%
Activity: 50.0%
Activity: 50.0% Activity: 50.0% Activity: 50.0%

   
Join Date: Jan 2017
Posts: 1,776
Rep Power: 7
Emet has a spectacular aura aboutEmet has a spectacular aura about
UL: 222.11 gb DL: 97.29 gb Ratio: 2.28
Default 1 Week Ago

thanksssss




Reply With Quote
(#4)
Old
Saski's Avatar
Saski Saski is offline
Media Blogger
Points: 60,520, Level: 76
Points: 60,520, Level: 76 Points: 60,520, Level: 76 Points: 60,520, Level: 76
Level up: 30%, 1,130 Points needed
Level up: 30% Level up: 30% Level up: 30%
Activity: 100.0%
Activity: 100.0% Activity: 100.0% Activity: 100.0%

I proudly released 155 torrents with 946 snatches
 
 
Join Date: Oct 2014
Posts: 13,021
Rep Power: 66
Saski has a reputation beyond repute
Saski has a reputation beyond reputeSaski has a reputation beyond reputeSaski has a reputation beyond reputeSaski has a reputation beyond reputeSaski has a reputation beyond repute
UL: 135.13 gb DL: 34.48 gb Ratio: 3.92
My Mood: Amused
Default 1 Week Ago

Thanks for the share





செல்வரின் வரவேற்பு நிறமிருந்தும் மணமில்லா காகிதப்பூ




Reply With Quote
(#5)
Old
Thushan0826 Thushan0826 is offline
TMR Member
Points: 731, Level: 6
Points: 731, Level: 6 Points: 731, Level: 6 Points: 731, Level: 6
Level up: 91%, 19 Points needed
Level up: 91% Level up: 91% Level up: 91%
Activity: 25.0%
Activity: 25.0% Activity: 25.0% Activity: 25.0%

   
Join Date: Nov 2018
Posts: 165
Rep Power: 1
Thushan0826 will become famous soon enough
UL: 52.61 gb DL: 66.11 gb Ratio: 0.80
My Mood: Amazed
Default 3 Days Ago

Thanks a lot bro




Reply

Tags
20191080p, 23gb, complete, ddp51, eng, family, hindi, man, tamil, telugu

Thread Tools
Display Modes

Similar Threads
Thread Thread Starter Forum Replies Last Post
San Andreas (2015) TrueHD - AMZN - WEB-DL - Tamil+Hindi+Telugu+English - 1080p - x264 - DDP5.1 - 640kbps - MSub - Team TMR NATARAJANMP Reseed 0 2nd-May-2019 04:57 PM
San Andreas (2015) TrueHD - AMZN - WEB-DL - Tamil+Hindi+Telugu+English - 1080p - x264 - DDP5.1 - 640kbps - MSub - Team TMR Mr.M Web HD/ Rips (Free Leech) 30 6th-April-2019 05:06 PM
300 (2006) TrueHD - AMZN - WEB-DL - Tamil+Hindi+Telugu+English - 1080p - x264 - DDP5.1 - 640kbps - ESub - Team TMR Mr.M Web HD/ Rips (Free Leech) 36 11th-March-2019 01:17 PM
Vella Raja (2018) Tamil Season 1 Complete - TrueHD - AMZN - WEB-DL - Tamil - 1080p - x264 - DDP5.1 - 640kbps - ESub - Team TMR Mr.M Web HD/ Rips (Free Leech) 56 24th-December-2018 01:18 PM
INSIDE EDGE (2018) Tamil Season 1 Complete - TrueHD - AMZN - WEB-DL - Tamil - 1080p - x264 - DDP5.1 - 640kbps - MSub - Team TMR Mr.M Web HD/ Rips (Free Leech) 11 15th-December-2018 03:25 AM

Posting Rules
You may not post new threads
You may not post replies
You may not post attachments
You may not edit your posts

BB code is On
Smilies are On
[IMG] code is On
HTML code is Off




Powered by vBulletin® Version 3.8.7
Copyright ©2000 - 2019, vBulletin Solutions, Inc.
Ad Management plugin by RedTyger