TAMILMOVIEROCKERS
Ticket Torrents

BitCoin Donation Here

BTC Donation : 15YBdAuhfkPPR3fVYnQa8DT4WL6SWaT6Y5

Bitcoin Cash : qpc945q8q6jdzt4d43jye03r6a8q978qlcy5fawg88

Go Back   TAMILMOVIEROCKERS > -: Other Releases :- > Hindi Releases - (Free Leech) > Music Videos
Reload this Page De Dana Dan (2009) Gabbar Singh (2012) BD50 Untouched BluRay 1080p AVC DTS HDMA M2TS Songs TMR Yuva
Reply
 
Thread Tools Display Modes
(#61)
Old
Chirage52 Chirage52 is offline
New TMR'ian
Points: 147, Level: 1
Points: 147, Level: 1 Points: 147, Level: 1 Points: 147, Level: 1
Level up: 97%, 3 Points needed
Level up: 97% Level up: 97% Level up: 97%
Activity: 0%
Activity: 0% Activity: 0% Activity: 0%

   
Join Date: Apr 2019
Posts: 14
Rep Power: 1
Chirage52 is an unknown quantity at this point
UL: 5.00 gb DL: 0.00 b Ratio: -
My Mood: Amazed
Default Awesome collection...... - 5th-April-2019





Reply With Quote
(#62)
Old
Khamoshiyansony Khamoshiyansony is offline
New TMR'ian
Points: 8, Level: 1
Points: 8, Level: 1 Points: 8, Level: 1 Points: 8, Level: 1
Level up: 15%, 42 Points needed
Level up: 15% Level up: 15% Level up: 15%
Activity: 0%
Activity: 0% Activity: 0% Activity: 0%
   
Join Date: May 2019
Posts: 2
Rep Power: 1
Khamoshiyansony is an unknown quantity at this point
UL: 5.00 gb DL: 0.00 b Ratio: -
Default 25th-May-2019

Quote:
Originally Posted by Yuvaselva View Post
De Dana Dan (2009) Gabbar Singh (2012) BD50 Untouched BluRay 1080p AVC DTS HDMA M2TS Songs TMR Yuva

-: Poster :-



-: Media Info :-


Code:
General Complete name : E:\IDM\Bollywood BD50 Songs M2TS TMR Yuva\ Format : BDAV Format/Info : Blu-ray Video File size : 4.10 GB Overall bit rate mode : Variable Overall bit rate : 34.5 Mbps Maximum Overall bit rate : 48.0 Mbps Video Format : VC-1 Format profile : Advanced@L3 Codec ID : 234 Bit rate : 28.3 Mbps Width : 1 920 pixels Height : 1 080 pixels Display aspect ratio : 16:9 Frame rate : 23.976 fps Color space : YUV Chroma subsampling : 4:2:0 Bit depth : 8 bits Scan type : Progressive Compression mode : Lossy Bits/(Pixel*Frame) : 0.569 Stream size : 790 MiB (82%) Audio Format : PCM Format settings, Endianness : Big Format settings, Sign : Signed Muxing mode : Blu-ray Codec ID : 128 Duration : 3mn 54s Bit rate mode : Constant Bit rate : 4 608 Kbps Channel(s) : 6 channels Channel positions : Front: L C R, Side: L R, LFE Sampling rate : 48.0 KHz Bit depth : 16 bits Stream size : 129 MiB (13%)
-: Screens :-































Enjoy Friends

Credits : Original Releaser

Please Seed Friends, Keep the torrent Alive for All Our Friends

Note : I have only These Songs from These Movies
Don't Request for All Songs from these movies

Kind Note : My Seeding may be Interrupted due to Frequent Power Cut in my Locality.If Seeding interrupted, i Will Seed as Soon as Possible. Friends Please be patient
Thanks a lot for the share




Reply With Quote
(#63)
Old
Ajjubhai Ajjubhai is offline
TMR Member
Points: 253, Level: 3
Points: 253, Level: 3 Points: 253, Level: 3 Points: 253, Level: 3
Level up: 3%, 97 Points needed
Level up: 3% Level up: 3% Level up: 3%
Activity: 14.3%
Activity: 14.3% Activity: 14.3% Activity: 14.3%

   
Join Date: Jun 2019
Posts: 68
Rep Power: 1
Ajjubhai is an unknown quantity at this point
UL: 5.00 gb DL: 6.50 gb Ratio: 0.77
Default 15th-June-2019

Quote:
Originally Posted by Yuvaselva View Post
De Dana Dan (2009) Gabbar Singh (2012) BD50 Untouched BluRay 1080p AVC DTS HDMA M2TS Songs TMR Yuva

-: Poster :-



-: Media Info :-


Code:
General Complete name : E:\IDM\Bollywood BD50 Songs M2TS TMR Yuva\ Format : BDAV Format/Info : Blu-ray Video File size : 4.10 GB Overall bit rate mode : Variable Overall bit rate : 34.5 Mbps Maximum Overall bit rate : 48.0 Mbps Video Format : VC-1 Format profile : Advanced@L3 Codec ID : 234 Bit rate : 28.3 Mbps Width : 1 920 pixels Height : 1 080 pixels Display aspect ratio : 16:9 Frame rate : 23.976 fps Color space : YUV Chroma subsampling : 4:2:0 Bit depth : 8 bits Scan type : Progressive Compression mode : Lossy Bits/(Pixel*Frame) : 0.569 Stream size : 790 MiB (82%) Audio Format : PCM Format settings, Endianness : Big Format settings, Sign : Signed Muxing mode : Blu-ray Codec ID : 128 Duration : 3mn 54s Bit rate mode : Constant Bit rate : 4 608 Kbps Channel(s) : 6 channels Channel positions : Front: L C R, Side: L R, LFE Sampling rate : 48.0 KHz Bit depth : 16 bits Stream size : 129 MiB (13%)
-: Screens :-































Enjoy Friends

Credits : Original Releaser

Please Seed Friends, Keep the torrent Alive for All Our Friends

Note : I have only These Songs from These Movies
Don't Request for All Songs from these movies

Kind Note : My Seeding may be Interrupted due to Frequent Power Cut in my Locality.If Seeding interrupted, i Will Seed as Soon as Possible. Friends Please be patient
Thanks for the release




Reply With Quote
(#64)
Old
Shashidhar Shashidhar is offline
New TMR'ian
Points: 4, Level: 1
Points: 4, Level: 1 Points: 4, Level: 1 Points: 4, Level: 1
Level up: 7%, 46 Points needed
Level up: 7% Level up: 7% Level up: 7%
Activity: 0%
Activity: 0% Activity: 0% Activity: 0%
   
Join Date: Jun 2019
Posts: 2
Rep Power: 1
Shashidhar is an unknown quantity at this point
UL: 5.00 gb DL: 0.00 b Ratio: -
Default 20th-June-2019

thank you




Reply With Quote
(#65)
Old
Jegath Jegath is offline
New TMR'ian
Points: 339, Level: 3
Points: 339, Level: 3 Points: 339, Level: 3 Points: 339, Level: 3
Level up: 89%, 11 Points needed
Level up: 89% Level up: 89% Level up: 89%
Activity: 0%
Activity: 0% Activity: 0% Activity: 0%

   
Join Date: Oct 2018
Posts: 22
Rep Power: 1
Jegath is an unknown quantity at this point
UL: 5.05 gb DL: 2.00 gb Ratio: 2.52
Default 10th-July-2019

Hope it has seeds




Reply With Quote
(#66)
Old
Slayer1984 Slayer1984 is offline
New TMR'ian
Points: 769, Level: 7
Points: 769, Level: 7 Points: 769, Level: 7 Points: 769, Level: 7
Level up: 10%, 181 Points needed
Level up: 10% Level up: 10% Level up: 10%
Activity: 0%
Activity: 0% Activity: 0% Activity: 0%

   
Join Date: Jun 2017
Posts: 6
Rep Power: 3
Slayer1984 is an unknown quantity at this point
UL: 5.00 gb DL: 0.00 b Ratio: -
Default 18th-July-2019

ok thanks bru




Reply With Quote
(#67)
Old
Chenthur Chenthur is offline
New TMR'ian
Points: 6, Level: 1
Points: 6, Level: 1 Points: 6, Level: 1 Points: 6, Level: 1
Level up: 11%, 44 Points needed
Level up: 11% Level up: 11% Level up: 11%
Activity: 0%
Activity: 0% Activity: 0% Activity: 0%
   
Join Date: Jul 2019
Posts: 5
Rep Power: 1
Chenthur is an unknown quantity at this point
UL: 5.00 gb DL: 0.00 b Ratio: -
Default 3 Weeks Ago

Quote:
Originally Posted by Yuvaselva View Post
De Dana Dan (2009) Gabbar Singh (2012) BD50 Untouched BluRay 1080p AVC DTS HDMA M2TS Songs TMR Yuva

-: Poster :-



-: Media Info :-


Code:
General Complete name : E:\IDM\Bollywood BD50 Songs M2TS TMR Yuva\ Format : BDAV Format/Info : Blu-ray Video File size : 4.10 GB Overall bit rate mode : Variable Overall bit rate : 34.5 Mbps Maximum Overall bit rate : 48.0 Mbps Video Format : VC-1 Format profile : Advanced@L3 Codec ID : 234 Bit rate : 28.3 Mbps Width : 1 920 pixels Height : 1 080 pixels Display aspect ratio : 16:9 Frame rate : 23.976 fps Color space : YUV Chroma subsampling : 4:2:0 Bit depth : 8 bits Scan type : Progressive Compression mode : Lossy Bits/(Pixel*Frame) : 0.569 Stream size : 790 MiB (82%) Audio Format : PCM Format settings, Endianness : Big Format settings, Sign : Signed Muxing mode : Blu-ray Codec ID : 128 Duration : 3mn 54s Bit rate mode : Constant Bit rate : 4 608 Kbps Channel(s) : 6 channels Channel positions : Front: L C R, Side: L R, LFE Sampling rate : 48.0 KHz Bit depth : 16 bits Stream size : 129 MiB (13%)
-: Screens :-































Enjoy Friends

Credits : Original Releaser

Please Seed Friends, Keep the torrent Alive for All Our Friends

Note : I have only These Songs from These Movies
Don't Request for All Songs from these movies

Kind Note : My Seeding may be Interrupted due to Frequent Power Cut in my Locality.If Seeding interrupted, i Will Seed as Soon as Possible. Friends Please be patient
Thanks a lot for the share




Reply With Quote
(#68)
Old
Hdbollywood Hdbollywood is offline
New TMR'ian
Points: 4, Level: 1
Points: 4, Level: 1 Points: 4, Level: 1 Points: 4, Level: 1
Level up: 7%, 46 Points needed
Level up: 7% Level up: 7% Level up: 7%
Activity: 0%
Activity: 0% Activity: 0% Activity: 0%
   
Join Date: Aug 2019
Posts: 1
Rep Power: 1
Hdbollywood is an unknown quantity at this point
UL: 5.00 gb DL: 0.00 b Ratio: -
Default 1 Week Ago

Nice Collection




Reply

Tags
1080p, 2009, 2012, avc, bd50, bluray, dan, dana, dts, gabbar, hdma, hindi, m2ts, singh, songs, tmr, untouched, yuva

Thread Tools
Display Modes

Similar Threads
Thread Thread Starter Forum Replies Last Post
Aagadu (2014) Untouched BluRay 1080p AVC DTS HDMA M2TS [2 Songs] TMR Yuva Yuvaselva Music Videos 115 1 Week Ago 03:37 AM
Agneepath (2012) Untouched BluRay 1080p AVC DTS HDMA M2TS [2 Songs] TMR Yuva Yuvaselva Music Videos 33 2 Weeks Ago 02:50 PM
Blue (2009) Bang Bang (2014) Bewakoofiyaan - BD50 - Untouched - BluRay - 1080p - AVC - DTS - HDMA - M2TS Songs Yuvaselva Music Videos 45 26th-June-2019 06:07 AM
Gabbar Singh (2012) - Telugu - BD50 - DTS HDMA - LPCM - ESubs - Team TMR J4gg3r BD/BR - Rips 65 21st-June-2019 02:28 PM
Aagadu (2014) Untouched BluRay 1080p AVC DTS HDMA M2TS [2 Songs] TMR Yuva Gkdhanush Reseed 4 2nd-May-2018 01:49 AM

Posting Rules
You may not post new threads
You may not post replies
You may not post attachments
You may not edit your posts

BB code is On
Smilies are On
[IMG] code is On
HTML code is Off




Powered by vBulletin® Version 3.8.7
Copyright ©2000 - 2019, vBulletin Solutions, Inc.
Ad Management plugin by RedTyger