TAMILMOVIEROCKERS
Ticket Torrents

BitCoin Donation Here

BTC Donation : 15YBdAuhfkPPR3fVYnQa8DT4WL6SWaT6Y5

Bitcoin Cash : qpc945q8q6jdzt4d43jye03r6a8q978qlcy5fawg88

Go Back   TAMILMOVIEROCKERS > -: Tamil Releases :- > BluRay/Web Rips > BD/BR - Rips
Reload this Page Chennai Express (2013) - Hindi - Blu-ray - BD50 AVC MKV - 5.1 Surround - Esubs-Chap - Untouched
BD/BR - Rips Bluray Rips 720p/1080p

View Poll Results: How about this Chennai Express (2013) Untouched Blu-ray to MKV Release
Good 3 42.86%
Need more releases like this 4 57.14%
Bad 0 0%
Need Untouched BD50 Disc 3 42.86%
Multiple Choice Poll. Voters: 7. You may not vote on this poll

Reply
 
Thread Tools Display Modes
(#1)
Old
PraveeN0078 PraveeN0078 is offline
TMR Member
Points: 4,072, Level: 18
Points: 4,072, Level: 18 Points: 4,072, Level: 18 Points: 4,072, Level: 18
Level up: 56%, 178 Points needed
Level up: 56% Level up: 56% Level up: 56%
Activity: 14.3%
Activity: 14.3% Activity: 14.3% Activity: 14.3%

I proudly released 3 torrents with 26 snatches
 
 
Join Date: Nov 2015
Posts: 689
Rep Power: 6
PraveeN0078 has a spectacular aura aboutPraveeN0078 has a spectacular aura about
UL: 6.51 tb DL: 1.76 tb Ratio: 3.69
My Mood: Amused
Bray Chennai Express (2013) - Hindi - Blu-ray - BD50 AVC MKV - 5.1 Surround - Esubs-Chap - Untouched - 2 Weeks Ago

Chennai Express (2013) - Hindi - [ Blu-ray - 5.1 Surround with Esubs Chapters (Untouched) ] 24.72 gb



* Note: Source for this release is from Original Blu-ray Disc of Chennai Express (2013) (BD50) Untouched, Just extracted the Source to the Single file MKV Container (Untouched Everything )
ScreenShots




File Info
Code:
Format                      : Matroska
Format version              : Version 2
File size                   : 24.7 GiB
Duration                    : 2 h 21 min
Overall bit rate mode       : Variable
Overall bit rate            : 25.0 Mb/s

Video
ID                          : 1
ID in the original source m : 4113 (0x1011)
Format                      : AVC
Format/Info                 : Advanced Video Codec
Format profile              : High@L4.1
Format settings             : CABAC / 4 Ref Frames
Format settings, CABAC      : Yes
Format settings, ReFrames   : 4 frames
Format settings, GOP        : M=3, N=12
Codec ID                    : V_MPEG4/ISO/AVC
Duration                    : 2 h 21 min
Bit rate mode               : Variable
Bit rate                    : 24.8 Mb/s
Maximum bit rate            : 30.0 Mb/s
Width                       : 1 920 pixels
Height                      : 1 080 pixels
Display aspect ratio        : 16:9
Frame rate mode             : Constant
Frame rate                  : 24.000 FPS
Standard                    : NTSC
Color space                 : YUV
Chroma subsampling          : 4:2:0
Bit depth                   : 8 bits
Scan type                   : Progressive
Bits/(Pixel*Frame)          : 0.499
Stream size                 : 24.5 GiB (99%)
Language                    : English
Default                     : No
Forced                      : No
Color range                 : Limited
Color primaries             : BT.709
Transfer characteristics    : BT.709
Matrix coefficients         : BT.709
Original source medium      : Blu-ray

Audio
ID                          : 2
ID in the original source m : 4353 (0x1101)
Format                      : AC-3
Format/Info                 : Audio Coding 3
Commercial name             : Dolby Digital
Codec ID                    : A_AC3
Duration                    : 2 h 21 min
Bit rate mode               : Constant
Bit rate                    : 160 kb/s
Channel(s)                  : 6 channels
Channel layout              : L R C LFE Ls Rs
Sampling rate               : 44.1 kHz
Frame rate                  : 28.711 FPS (1536 SPF)
Bit depth                   : 16 bits
Compression mode            : Lossy
Stream size                 : 162 MiB (1%)
Title                       : Surround 5.1
Language                    : Hindi
Service kind                : Complete Main
Default                     : Yes
Forced                      : No
Original source medium      : Blu-ray
TMR Dudes, Note : High Speed Seeding & Seeding will be for a Couple of Weeks,
Grab it Quick as Possible and After Downloading Please Keep it seeding much as Possible.. Thanks a lot.!

Happy Downloading from TMR
-- PraveeN0078 @ TMR
Attached Files
File Type: torrent Chennai Express (2013) - Hindi - Blu-ray - BD50 AVC MKV - 5.1 Surround - Esubs-Chap - Untouc.torrent (62.1 KB, 8 views), size: 24.72 gb, completed: 2
Name Size
Name Completed % Left Uploaded Downloaded Last Announce

Last edited by PraveeN0078; 2 Weeks Ago at 12:28 PM.




The Following 5 Users Say Thank You to PraveeN0078 For This Useful Post:

5 Lastest Threads by PraveeN0078
Thread Forum Last Poster Replies Views Last Post
Reported Post by PraveeN0078 Reports PraveeN0078 0 137 6th-July-2019 12:25 PM
Chennai Express (2013) - Hindi - Blu-ray - BD50... BD/BR - Rips Splender2007 12 416 5th-July-2019 09:38 PM
Reseed Badri Reseed PraveeN0078 12 301 6th-June-2019 03:58 AM
Reseed > Kandukondain Kandukondain (2000) - Tamil... Reseed PraveeN0078 0 186 28th-November-2018 03:53 PM
Reseed > Thiruda Thiruda (1993) AP DVD9 - Dolby... Reseed Thedarkaxe 5 416 23rd-December-2017 10:56 PM

(#2)
Old
Ajjubhai Ajjubhai is offline
TMR Member
Points: 218, Level: 2
Points: 218, Level: 2 Points: 218, Level: 2 Points: 218, Level: 2
Level up: 68%, 32 Points needed
Level up: 68% Level up: 68% Level up: 68%
Activity: 14.3%
Activity: 14.3% Activity: 14.3% Activity: 14.3%

   
Join Date: Jun 2019
Posts: 63
Rep Power: 1
Ajjubhai is an unknown quantity at this point
UL: 5.00 gb DL: 6.50 gb Ratio: 0.77
Default 2 Weeks Ago

Quote:
Originally Posted by PraveeN0078 View Post
Chennai Express (2013) - Hindi - [ Blu-ray - 5.1 Surround with Esubs Chapters (Untouched) ]



* Note: Source for this release is from Original Blu-ray Disc of Chennai Express (2013) (BD50) Untouched, Just extracted the Source to the Single file MKV Container (Untouched Everything )
ScreenShots




File Info
Code:
Format                      : Matroska
Format version              : Version 2
File size                   : 24.7 GiB
Duration                    : 2 h 21 min
Overall bit rate mode       : Variable
Overall bit rate            : 25.0 Mb/s

Video
ID                          : 1
ID in the original source m : 4113 (0x1011)
Format                      : AVC
Format/Info                 : Advanced Video Codec
Format profile              : High@L4.1
Format settings             : CABAC / 4 Ref Frames
Format settings, CABAC      : Yes
Format settings, ReFrames   : 4 frames
Format settings, GOP        : M=3, N=12
Codec ID                    : V_MPEG4/ISO/AVC
Duration                    : 2 h 21 min
Bit rate mode               : Variable
Bit rate                    : 24.8 Mb/s
Maximum bit rate            : 30.0 Mb/s
Width                       : 1 920 pixels
Height                      : 1 080 pixels
Display aspect ratio        : 16:9
Frame rate mode             : Constant
Frame rate                  : 24.000 FPS
Standard                    : NTSC
Color space                 : YUV
Chroma subsampling          : 4:2:0
Bit depth                   : 8 bits
Scan type                   : Progressive
Bits/(Pixel*Frame)          : 0.499
Stream size                 : 24.5 GiB (99%)
Language                    : English
Default                     : No
Forced                      : No
Color range                 : Limited
Color primaries             : BT.709
Transfer characteristics    : BT.709
Matrix coefficients         : BT.709
Original source medium      : Blu-ray

Audio
ID                          : 2
ID in the original source m : 4353 (0x1101)
Format                      : AC-3
Format/Info                 : Audio Coding 3
Commercial name             : Dolby Digital
Codec ID                    : A_AC3
Duration                    : 2 h 21 min
Bit rate mode               : Constant
Bit rate                    : 160 kb/s
Channel(s)                  : 6 channels
Channel layout              : L R C LFE Ls Rs
Sampling rate               : 44.1 kHz
Frame rate                  : 28.711 FPS (1536 SPF)
Bit depth                   : 16 bits
Compression mode            : Lossy
Stream size                 : 162 MiB (1%)
Title                       : Surround 5.1
Language                    : Hindi
Service kind                : Complete Main
Default                     : Yes
Forced                      : No
Original source medium      : Blu-ray
TMR Dudes, Note : High Speed Seeding & Seeding will be for a Couple of Weeks,
Grab it Quick as Possible and After Downloading Please Keep it seeding much as Possible.. Thanks a lot.!

Happy Downloading from TMR
-- PraveeN0078 @ TMR
Thanks for the share




Reply With Quote
(#3)
Old
Mukeshv333 Mukeshv333 is offline
TMR Member
Points: 527, Level: 5
Points: 527, Level: 5 Points: 527, Level: 5 Points: 527, Level: 5
Level up: 77%, 23 Points needed
Level up: 77% Level up: 77% Level up: 77%
Activity: 71.4%
Activity: 71.4% Activity: 71.4% Activity: 71.4%

   
Join Date: Jun 2018
Posts: 86
Rep Power: 2
Mukeshv333 is an unknown quantity at this point
UL: 36.27 gb DL: 12.01 gb Ratio: 3.02
Default 2 Weeks Ago

Great share




Reply With Quote
(#4)
Old
Poisonrock Poisonrock is offline
TMR Member
Points: 1,002, Level: 8
Points: 1,002, Level: 8 Points: 1,002, Level: 8 Points: 1,002, Level: 8
Level up: 26%, 148 Points needed
Level up: 26% Level up: 26% Level up: 26%
Activity: 14.3%
Activity: 14.3% Activity: 14.3% Activity: 14.3%

   
Join Date: Jul 2015
Posts: 206
Rep Power: 6
Poisonrock will become famous soon enoughPoisonrock will become famous soon enough
UL: 1.20 tb DL: 142.66 gb Ratio: 8.59
My Mood: In Love
Default 2 Weeks Ago

Thanks for the share




Poisonrock




Reply With Quote
(#5)
Old
Shan8205 Shan8205 is offline
TMR Member
Points: 574, Level: 6
Points: 574, Level: 6 Points: 574, Level: 6 Points: 574, Level: 6
Level up: 12%, 176 Points needed
Level up: 12% Level up: 12% Level up: 12%
Activity: 14.3%
Activity: 14.3% Activity: 14.3% Activity: 14.3%

I proudly released 1 torrents with 1 snatches
 
 
Join Date: Jun 2018
Posts: 167
Rep Power: 2
Shan8205 is an unknown quantity at this point
UL: 121.07 gb DL: 152.18 gb Ratio: 0.80
My Mood: Amazed
Default 2 Weeks Ago

alwix the best hindi movie for me.. entertaining




Reply With Quote
(#6)
Old
Saski's Avatar
Saski Saski is offline
Media Blogger
Points: 59,859, Level: 75
Points: 59,859, Level: 75 Points: 59,859, Level: 75 Points: 59,859, Level: 75
Level up: 88%, 191 Points needed
Level up: 88% Level up: 88% Level up: 88%
Activity: 99.9%
Activity: 99.9% Activity: 99.9% Activity: 99.9%

I proudly released 155 torrents with 946 snatches
 
 
Join Date: Oct 2014
Posts: 12,937
Rep Power: 64
Saski has a reputation beyond repute
Saski has a reputation beyond reputeSaski has a reputation beyond reputeSaski has a reputation beyond reputeSaski has a reputation beyond reputeSaski has a reputation beyond repute
UL: 135.13 gb DL: 34.34 gb Ratio: 3.93
My Mood: Amused
Default 2 Weeks Ago

Thanks for sharing





செல்வரின் வரவேற்பு நிறமிருந்தும் மணமில்லா காகிதப்பூ




Reply With Quote
(#7)
Old
Smilingstar Smilingstar is offline
New TMR'ian
Points: 718, Level: 6
Points: 718, Level: 6 Points: 718, Level: 6 Points: 718, Level: 6
Level up: 84%, 32 Points needed
Level up: 84% Level up: 84% Level up: 84%
Activity: 0%
Activity: 0% Activity: 0% Activity: 0%

I proudly released 1 torrents with 0 snatches
 
 
Join Date: Nov 2017
Posts: 39
Rep Power: 2
Smilingstar is an unknown quantity at this point
UL: 12.55 gb DL: 8.37 gb Ratio: 1.50
Default 2 Weeks Ago

thanks for the bd share




Reply With Quote
(#8)
Old
Zackynama Zackynama is offline
TMR Member
Points: 632, Level: 6
Points: 632, Level: 6 Points: 632, Level: 6 Points: 632, Level: 6
Level up: 41%, 118 Points needed
Level up: 41% Level up: 41% Level up: 41%
Activity: 71.4%
Activity: 71.4% Activity: 71.4% Activity: 71.4%

   
Join Date: Aug 2018
Posts: 172
Rep Power: 1
Zackynama is an unknown quantity at this point
UL: 6.69 gb DL: 8.53 gb Ratio: 0.78
Default 1 Week Ago

thanks very many bro




Reply With Quote
(#9)
Old
MAZERMS's Avatar
MAZERMS MAZERMS is offline
TMR Member
Points: 257, Level: 3
Points: 257, Level: 3 Points: 257, Level: 3 Points: 257, Level: 3
Level up: 7%, 93 Points needed
Level up: 7% Level up: 7% Level up: 7%
Activity: 0%
Activity: 0% Activity: 0% Activity: 0%

   
Join Date: May 2019
Posts: 62
Rep Power: 1
MAZERMS is an unknown quantity at this point
UL: 5.00 gb DL: 0.00 b Ratio: -
Default 1 Week Ago

Good share




Reply With Quote
(#10)
Old
Siddheswar Maha Siddheswar Maha is offline
New TMR'ian
Points: 239, Level: 2
Points: 239, Level: 2 Points: 239, Level: 2 Points: 239, Level: 2
Level up: 89%, 11 Points needed
Level up: 89% Level up: 89% Level up: 89%
Activity: 0%
Activity: 0% Activity: 0% Activity: 0%

   
Join Date: Nov 2018
Posts: 1
Rep Power: 1
Siddheswar Maha is an unknown quantity at this point
UL: 5.00 gb DL: 0.00 b Ratio: -
Default 1 Week Ago

Nice post




Reply With Quote
Reply

Tags
2013, avc, bd50, bluray, chennai, esubschap, express, hindi, mkv, surround, untouched

Thread Tools
Display Modes

Similar Threads
Thread Thread Starter Forum Replies Last Post
Chennai Express (2013) BD50 1080p Untouched BluRay - [Tamil + Hindi + Telugu] - Esubs Team TMR Mr.M BD/BR - Rips 56 1 Week Ago 06:47 PM
Aashiqui 2 (2013) Hindi - BD50 Untouched - 1080p - DTS-HD MA - ESub - Team TMR Mr.M BD/BR - Rips 31 3 Weeks Ago 08:11 PM
Tiger Zinda Hai (2017) - Hindi 1080p - BD50 - Untouched - Atmos 7.1 - Esubs - Team TMR Mr.M BD/BR - Rips 64 3 Weeks Ago 08:09 PM
Chennai Express (2013)-(All Music Video)-Bluray 1080p x264 DTS-HDMA - Team TMR Arundirectioner Music Videos 20 19th-January-2019 12:25 PM
Aashiqui 2 (2013) Hindi - BD50 Untouched - 1080p - DTS-HD MA - ESub - Team TMR Mr.M Seeding Help 0 20th-September-2017 03:29 PM

Posting Rules
You may not post new threads
You may not post replies
You may not post attachments
You may not edit your posts

BB code is On
Smilies are On
[IMG] code is On
HTML code is Off




Powered by vBulletin® Version 3.8.7
Copyright ©2000 - 2019, vBulletin Solutions, Inc.
Ad Management plugin by RedTyger