TAMILMOVIEROCKERS
Ticket Torrents

BitCoin Donation Here

BTC Donation : 15YBdAuhfkPPR3fVYnQa8DT4WL6SWaT6Y5

Bitcoin Cash : qpc945q8q6jdzt4d43jye03r6a8q978qlcy5fawg88

Go Back   TAMILMOVIEROCKERS > -: Other Releases :- > Hindi Releases - (Free Leech) > Music Videos
Reload this Page Khandaani Shafakhana (2019) - Koka - Full Video Song - Full HD - 1080p - MP4 - Pathi - TMR
Reply
 
Thread Tools Display Modes
(#1)
Old
Mr.Pathi's Avatar
Mr.Pathi Mr.Pathi is offline
Releaser
Points: 309,373, Level: 100
Points: 309,373, Level: 100 Points: 309,373, Level: 100 Points: 309,373, Level: 100
Level up: 0%, 0 Points needed
Level up: 0% Level up: 0% Level up: 0%
Activity: 99.9%
Activity: 99.9% Activity: 99.9% Activity: 99.9%

I proudly released 4274 torrents with 40203 snatches
 
 
Join Date: Oct 2014
Posts: 4,757
Rep Power: 708
Mr.Pathi has a reputation beyond reputeMr.Pathi has a reputation beyond reputeMr.Pathi has a reputation beyond reputeMr.Pathi has a reputation beyond reputeMr.Pathi has a reputation beyond reputeMr.Pathi has a reputation beyond reputeMr.Pathi has a reputation beyond repute
Mr.Pathi has a reputation beyond reputeMr.Pathi has a reputation beyond reputeMr.Pathi has a reputation beyond reputeMr.Pathi has a reputation beyond reputeMr.Pathi has a reputation beyond repute
UL: 1.01 tb DL: 37.42 gb Ratio: 27.76
My Mood: Fine
HDRIP Khandaani Shafakhana (2019) - Koka - Full Video Song - Full HD - 1080p - MP4 - Pathi - TMR - 4 Weeks Ago

|MOVIE COVER|


|MEDIA INFO|
Code:
Format                                   : MPEG-4
Format profile                           : Base Media
Codec ID                                 : isom (isom/iso2/avc1/mp41)
File size                                : 99.2 MiB
Duration                                 : 3 min 5 s
Overall bit rate                         : 4 486 kb/s
Writing application                      : Lavf58.27.100

Video
ID                                       : 1
Format                                   : AVC
Format/Info                              : Advanced Video Codec
Format profile                           : High@L4
Format settings                          : CABAC / 3 Ref Frames
Format settings, CABAC                   : Yes
Format settings, Reference frames        : 3 frames
Codec ID                                 : avc1
Codec ID/Info                            : Advanced Video Coding
Duration                                 : 3 min 5 s
Bit rate                                 : 4 354 kb/s
Width                                    : 1 920 pixels
Height                                   : 1 080 pixels
Display aspect ratio                     : 16:9
Frame rate mode                          : Constant
Frame rate                               : 24.000 FPS
Color space                              : YUV
Chroma subsampling                       : 4:2:0
Bit depth                                : 8 bits
Scan type                                : Progressive
Bits/(Pixel*Frame)                       : 0.087
Stream size                              : 96.2 MiB (97%)
Title                                    : ISO Media file produced by Google Inc.
Color range                              : Limited
Color primaries                          : BT.709
Transfer characteristics                 : BT.709
Matrix coefficients                      : BT.709
Codec configuration box                  : avcC

Audio
ID                                       : 2
Format                                   : AAC LC
Format/Info                              : Advanced Audio Codec Low Complexity
Codec ID                                 : mp4a-40-2
Duration                                 : 3 min 5 s
Bit rate mode                            : Constant
Bit rate                                 : 128 kb/s
Channel(s)                               : 2 channels
Channel layout                           : L R
Sampling rate                            : 44.1 kHz
Frame rate                               : 43.066 FPS (1024 SPF)
Compression mode                         : Lossy
Stream size                              : 2.83 MiB (3%)
Title                                    : ISO Media file produced by Google Inc.
Language                                 : English
Default                                  : Yes
Alternate group                          : 1
|SCREEN SHOT|



!! Please Share With Proper Credits (Mr.Pathi @ TMR) Else Don't Download Here !!

!!! Please Keep Seeding After Download As Long As Possible !!!

Attached Files
File Type: torrent Khandaani Shafakhana (2019) - Koka - Full Video Song - Full HD - 1080p - MP4 - Pathi - TMR.torrent (15.9 KB, 2 views), size: 99.19 mb
Name Size





Last edited by Mr.Pathi; 4 Weeks Ago at 09:00 AM.




The Following User Says Thank You to Mr.Pathi For This Useful Post:

5 Lastest Threads by Mr.Pathi
Thread Forum Last Poster Replies Views Last Post
Bakrid (2019) - Lorry Lucky Lorry - Full Video... Hi Def & Upscales Sadhir 6 112 26th-August-2019 09:59 AM
Dear Comrade Tamil (2019) - Pularaadha - Full... Hi Def & Upscales SilaruRaghuveer 5 101 26th-August-2019 09:54 AM
[MP3]Zombie (2019) - Are You Ok Baby - OST -... New Movie Albums Loosupakki 3 120 24th-August-2019 05:34 PM
[MP3]Kuraiondrumillai (2019) ~ Ramanujan M K... New Movie Albums Najisheik 2 81 24th-August-2019 05:07 PM
Bakrid (2019) - Aalanguruvigalaa - Full Video... Hi Def & Upscales Saski 3 83 24th-August-2019 05:02 PM

(#2)
Old
Babusha82 Babusha82 is offline
TMR Member
Points: 1,906, Level: 12
Points: 1,906, Level: 12 Points: 1,906, Level: 12 Points: 1,906, Level: 12
Level up: 19%, 244 Points needed
Level up: 19% Level up: 19% Level up: 19%
Activity: 99.2%
Activity: 99.2% Activity: 99.2% Activity: 99.2%

   
Join Date: Jul 2016
Posts: 603
Rep Power: 5
Babusha82 will become famous soon enough
UL: 95.41 gb DL: 119.38 gb Ratio: 0.80
Default 4 Weeks Ago

Thanks for the share




Reply With Quote
(#3)
Old
Saski's Avatar
Saski Saski is offline
Media Blogger
Points: 60,391, Level: 76
Points: 60,391, Level: 76 Points: 60,391, Level: 76 Points: 60,391, Level: 76
Level up: 22%, 1,259 Points needed
Level up: 22% Level up: 22% Level up: 22%
Activity: 100.0%
Activity: 100.0% Activity: 100.0% Activity: 100.0%

I proudly released 155 torrents with 946 snatches
 
 
Join Date: Oct 2014
Posts: 13,011
Rep Power: 65
Saski has a reputation beyond repute
Saski has a reputation beyond reputeSaski has a reputation beyond reputeSaski has a reputation beyond reputeSaski has a reputation beyond reputeSaski has a reputation beyond repute
UL: 135.13 gb DL: 34.48 gb Ratio: 3.92
My Mood: Amused
Default 4 Weeks Ago

Thanks for the Share





செல்வரின் வரவேற்பு நிறமிருந்தும் மணமில்லா காகிதப்பூ




Reply

Tags
1080p, 2019, full, khandaani, koka, mp4, pathi, shafakhana, song, tmr, video

Thread Tools
Display Modes

Similar Threads
Thread Thread Starter Forum Replies Last Post
Dream Girl (2019) - Radhe Radhe - Video Song - Full HD - 1080p - MP4 - Pathi - TMR Mr.Pathi Music Videos 3 4 Weeks Ago 12:21 PM
[MP4] Nerkonda Paarvai (2019) - Agalaathey - Full Video Song - 1080p - Pathi - TMR Mr.Pathi Hi Def & Upscales 4 4 Weeks Ago 05:25 AM
Nenjamundu Nermaiyundu Odu Raja (2019) - Video Song - Full HD - 1080p - MP4 - Pathi - TMR Mr.Pathi Hi Def & Upscales 4 4 Weeks Ago 05:23 AM
Malaal (2019) - Naad Khula - Full Video Song - Full HD - 1080p - MP4 - Pathi - TMR Mr.Pathi Music Videos 2 4 Weeks Ago 06:01 PM
Andhadhi (2015) - Title Song - Full Video Song - Full HD - 1080p - MP4 - Pathi - TMR Mr.Pathi Hi Def & Upscales 6 17th-July-2017 04:31 AM

Posting Rules
You may not post new threads
You may not post replies
You may not post attachments
You may not edit your posts

BB code is On
Smilies are On
[IMG] code is On
HTML code is Off




Powered by vBulletin® Version 3.8.7
Copyright ©2000 - 2019, vBulletin Solutions, Inc.
Ad Management plugin by RedTyger