TAMILMOVIEROCKERS
Ticket Torrents

BitCoin Donation Here

BTC Donation : 15YBdAuhfkPPR3fVYnQa8DT4WL6SWaT6Y5

Bitcoin Cash : qpc945q8q6jdzt4d43jye03r6a8q978qlcy5fawg88

Go Back   TAMILMOVIEROCKERS > -•: Info Desk :•- > Reports
Reload this Page Reported Post by PraveeN0078
Reports You can report any issues about threads or anything else.

Reply
 
Thread Tools Display Modes
(#1)
Old
PraveeN0078 PraveeN0078 is offline
TMR Member
Points: 4,087, Level: 18
Points: 4,087, Level: 18 Points: 4,087, Level: 18 Points: 4,087, Level: 18
Level up: 60%, 163 Points needed
Level up: 60% Level up: 60% Level up: 60%
Activity: 14.3%
Activity: 14.3% Activity: 14.3% Activity: 14.3%

I proudly released 3 torrents with 26 snatches
 
 
Join Date: Nov 2015
Posts: 690
Rep Power: 6
PraveeN0078 has a spectacular aura aboutPraveeN0078 has a spectacular aura about
UL: 6.51 tb DL: 1.76 tb Ratio: 3.69
My Mood: Amused
Default Reported Post by PraveeN0078 - 2 Weeks Ago

PraveeN0078 has reported a post.

Reason:
Quote:
Hi Mods, I Have wrongly selected the Tamil Category of this Movie,
So Can you move this Thread to (HINDI) BD/BR - Rips Bluray Rips 720p/1080p ?
Post: Chennai Express (2013) - Hindi - Blu-ray - BD50 AVC MKV - 5.1 Surround - Esubs-Chap - Untouched
Forum: BD/BR - Rips
Assigned Moderators: Dévil Máy Caré, tkse

Posted by: PraveeN0078
Original Content:
Quote:
Chennai Express (2013) - Hindi - [ Blu-ray - 5.1 Surround with Esubs Chapters (Untouched) ]



* Note: Source for this release is from Original Blu-ray Disc of Chennai Express (2013) (BD50) Untouched, Just extracted the Source to the Single file MKV Container (Untouched Everything )
ScreenShots




File Info
Code:
Format                      : Matroska
Format version              : Version 2
File size                   : 24.7 GiB
Duration                    : 2 h 21 min
Overall bit rate mode       : Variable
Overall bit rate            : 25.0 Mb/s

Video
ID                          : 1
ID in the original source m : 4113 (0x1011)
Format                      : AVC
Format/Info                 : Advanced Video Codec
Format profile              : High@L4.1
Format settings             : CABAC / 4 Ref Frames
Format settings, CABAC      : Yes
Format settings, ReFrames   : 4 frames
Format settings, GOP        : M=3, N=12
Codec ID                    : V_MPEG4/ISO/AVC
Duration                    : 2 h 21 min
Bit rate mode               : Variable
Bit rate                    : 24.8 Mb/s
Maximum bit rate            : 30.0 Mb/s
Width                       : 1 920 pixels
Height                      : 1 080 pixels
Display aspect ratio        : 16:9
Frame rate mode             : Constant
Frame rate                  : 24.000 FPS
Standard                    : NTSC
Color space                 : YUV
Chroma subsampling          : 4:2:0
Bit depth                   : 8 bits
Scan type                   : Progressive
Bits/(Pixel*Frame)          : 0.499
Stream size                 : 24.5 GiB (99%)
Language                    : English
Default                     : No
Forced                      : No
Color range                 : Limited
Color primaries             : BT.709
Transfer characteristics    : BT.709
Matrix coefficients         : BT.709
Original source medium      : Blu-ray

Audio
ID                          : 2
ID in the original source m : 4353 (0x1101)
Format                      : AC-3
Format/Info                 : Audio Coding 3
Commercial name             : Dolby Digital
Codec ID                    : A_AC3
Duration                    : 2 h 21 min
Bit rate mode               : Constant
Bit rate                    : 160 kb/s
Channel(s)                  : 6 channels
Channel layout              : L R C LFE Ls Rs
Sampling rate               : 44.1 kHz
Frame rate                  : 28.711 FPS (1536 SPF)
Bit depth                   : 16 bits
Compression mode            : Lossy
Stream size                 : 162 MiB (1%)
Title                       : Surround 5.1
Language                    : Hindi
Service kind                : Complete Main
Default                     : Yes
Forced                      : No
Original source medium      : Blu-ray
TMR Dudes, Note : High Speed Seeding & Seeding will be for a Couple of Weeks,
Grab it Quick as Possible and After Downloading Please Keep it seeding much as Possible.. Thanks a lot.!

Happy Downloading from TMR
-- PraveeN0078 @ TMR





5 Lastest Threads by PraveeN0078
Thread Forum Last Poster Replies Views Last Post
Reported Post by PraveeN0078 Reports PraveeN0078 0 149 6th-July-2019 12:25 PM
Chennai Express (2013) - Hindi - Blu-ray - BD50... BD/BR - Rips Splender2007 12 420 5th-July-2019 09:38 PM
Reseed Badri Reseed PraveeN0078 12 304 6th-June-2019 03:58 AM
Reseed > Kandukondain Kandukondain (2000) - Tamil... Reseed PraveeN0078 0 186 28th-November-2018 03:53 PM
Reseed > Thiruda Thiruda (1993) AP DVD9 - Dolby... Reseed Thedarkaxe 5 418 23rd-December-2017 10:56 PM

Reply

Tags
post, praveen0078, reported

Thread Tools
Display Modes

Similar Threads
Thread Thread Starter Forum Replies Last Post
Reported Post by PraveeN0078 PraveeN0078 Reports 1 21st-August-2017 07:47 AM
Reported Post by PraveeN0078 PraveeN0078 Reports 0 12th-August-2017 04:05 PM
Reported Post by PraveeN0078 PraveeN0078 Reports 0 25th-August-2016 08:02 AM
Reported Post by PraveeN0078 PraveeN0078 Reports 2 17th-August-2016 12:12 PM

Posting Rules
You may not post new threads
You may not post replies
You may not post attachments
You may not edit your posts

BB code is On
Smilies are On
[IMG] code is On
HTML code is Off




Powered by vBulletin® Version 3.8.7
Copyright ©2000 - 2019, vBulletin Solutions, Inc.
Ad Management plugin by RedTyger