TAMILMOVIEROCKERS
Ticket Torrents

BitCoin Donation Here

BTC Donation : 15YBdAuhfkPPR3fVYnQa8DT4WL6SWaT6Y5

Bitcoin Cash : qpc945q8q6jdzt4d43jye03r6a8q978qlcy5fawg88

Go Back   TAMILMOVIEROCKERS > -: Tamil Releases :- > Tamil Songs > New Movie Albums
Reload this Page Iravukku Aayiram Kangal (2018) - Arulnithi in - Tamil - MP3 Songs - CBR - 320 kbps - Team TMR
Reply
 
Thread Tools Display Modes
(#1)
Old
Subbu2000 Subbu2000 is offline
TMR Member
Points: 30,432, Level: 53
Points: 30,432, Level: 53 Points: 30,432, Level: 53 Points: 30,432, Level: 53
Level up: 62%, 418 Points needed
Level up: 62% Level up: 62% Level up: 62%
Activity: 14.3%
Activity: 14.3% Activity: 14.3% Activity: 14.3%
I proudly released 38 torrents with 1333 snatches
 
 
Join Date: Feb 2017
Posts: 4,558
Rep Power: 46
Subbu2000 has a reputation beyond repute
Subbu2000 has a reputation beyond reputeSubbu2000 has a reputation beyond reputeSubbu2000 has a reputation beyond reputeSubbu2000 has a reputation beyond reputeSubbu2000 has a reputation beyond reputeSubbu2000 has a reputation beyond repute
UL: 1.14 tb DL: 9.77 gb Ratio: 119.45
My Mood: Cheeky
MP3 Iravukku Aayiram Kangal (2018) - Arulnithi in - Tamil - MP3 Songs - CBR - 320 kbps - Team TMR - 10th-February-2018

Iravukku Aayiram Kangal (2018) - Arulnithi in - Tamil - MP3 Songs - CBR - 320 kbps - Team TMR



MOVIE INFO

Starring: Arulnithi, Ajmal, Mahima Nambiar, Vidya Pradeep
Directed by: Mu. Maran
Music by: Sam CS
Produced by: G. Dilli Babu
Country: India
Language: Tamil
Year: 2018


MEDIA INFO

Code:
Iravukku Aayiram Kangal (2018) - Arulnithi in -  Tamil - MP3 Songs - CBR - 320 kbps - Team TMR\Uyir Uruvaatha.mp3
Format                                   : MPEG Audio
File size                                : 9.66 MiB
Duration                                 : 4 min 13 s
Overall bit rate mode                    : Constant
Overall bit rate                         : 320 kb/s
Writing library                          : LAME3.99r

Audio
Format                                   : MPEG Audio
Format version                           : Version 1
Format profile                           : Layer 3
Mode                                     : Joint stereo
Duration                                 : 4 min 13 s
Bit rate mode                            : Constant
Bit rate                                 : 320 kb/s
Channel(s)                               : 2 channels
Sampling rate                            : 44.1 kHz
Compression mode                         : Lossy
Stream size                              : 9.66 MiB (100%)
Writing library                          : LAME3.99r
Encoding settings                        : -m j -V 4 -q 3 -lowpass 20.5
TRACK INFO

Yean Penne Neeyum
Artists: Haricharan

Yea Pa Yeppappa
Artists: Sam C.S., Swagatha S. Krishnan

Winds Of The Darkest Hour
Artists: Chennai Orchestra

Uyir Uruvaatha
Artists: D. Sathyaprakash, Chinmayi Sripaada

Nights Of Neverland
Artists: Sam C.S., Chennai Orchestra
Attached Files
File Type: torrent Iravukku Aayiram Kangal (2018) - Arulnithi in - Tamil - MP3 Songs - CBR - 320 kbps - Team T.torrent (2.0 KB, 34 views), size: 37.13 mb, completed: 19
Name Size
Name Completed % Left Uploaded Downloaded Last Announce




The Following 11 Users Say Thank You to Subbu2000 For This Useful Post:

5 Lastest Threads by Subbu2000
Thread Forum Last Poster Replies Views Last Post
Mr Chandramouli (2018) - Gautham Karthik in -... New Movie Albums Karthikeyan007 33 797 25th-April-2018 01:47 AM
Nagesh Thiraiyarangam (2018) - WEB HD Rip -720p -... Web HD/ Rips (Free Leech) Thina194 57 1167 5th-April-2018 05:09 AM
Nagesh Thiraiyarangam (2018) - UNTOUCHED - WEB HD... Web HD/ Rips (Free Leech) Rajeshdear 55 1299 5th-April-2018 03:29 AM
Kaathadi (2018) - WEB HD Rip - mkv - AC3 5.1 -... Web HD/ Rips (Free Leech) Mesorry 47 1456 30th-March-2018 04:48 AM
Padmaavat (2018) - WEB HD - 720p - Tamil - mkv -... Web HD/ Rips (Free Leech) Movielogin 136 2357 27th-March-2018 05:21 AM

(#2)
Old
Bluray_123 Bluray_123 is offline
TMR Member
Points: 9,664, Level: 29
Points: 9,664, Level: 29 Points: 9,664, Level: 29 Points: 9,664, Level: 29
Level up: 53%, 286 Points needed
Level up: 53% Level up: 53% Level up: 53%
Activity: 44.4%
Activity: 44.4% Activity: 44.4% Activity: 44.4%
I proudly released 2 torrents with 28 snatches
 
 
Join Date: Oct 2014
Posts: 1,866
Rep Power: 16
Bluray_123 is a splendid one to beholdBluray_123 is a splendid one to beholdBluray_123 is a splendid one to beholdBluray_123 is a splendid one to beholdBluray_123 is a splendid one to beholdBluray_123 is a splendid one to beholdBluray_123 is a splendid one to behold
UL: 2.23 tb DL: 2.17 tb Ratio: 1.03
Default 10th-February-2018

Thanks fr the good share




Reply With Quote
(#3)
Old
Simma Simma is offline
TMR Member
Points: 6,745, Level: 24
Points: 6,745, Level: 24 Points: 6,745, Level: 24 Points: 6,745, Level: 24
Level up: 39%, 305 Points needed
Level up: 39% Level up: 39% Level up: 39%
Activity: 27.3%
Activity: 27.3% Activity: 27.3% Activity: 27.3%
   
Join Date: Oct 2014
Posts: 1,383
Rep Power: 11
Simma is just really niceSimma is just really niceSimma is just really niceSimma is just really niceSimma is just really nice
UL: 6.06 tb DL: 430.32 gb Ratio: 14.43
Default 10th-February-2018

Thanks for the share.




Reply With Quote
(#4)
Old
Vallavaan123's Avatar
Vallavaan123 Vallavaan123 is offline
Premium Users
Points: 15,530, Level: 37
Points: 15,530, Level: 37 Points: 15,530, Level: 37 Points: 15,530, Level: 37
Level up: 85%, 120 Points needed
Level up: 85% Level up: 85% Level up: 85%
Activity: 99.6%
Activity: 99.6% Activity: 99.6% Activity: 99.6%

   
Join Date: Oct 2014
Posts: 4,638
Rep Power: 19
Vallavaan123 is a glorious beacon of lightVallavaan123 is a glorious beacon of lightVallavaan123 is a glorious beacon of lightVallavaan123 is a glorious beacon of lightVallavaan123 is a glorious beacon of lightVallavaan123 is a glorious beacon of light
UL: 19.61 tb DL: 499.29 gb Ratio: 40.22
Default 10th-February-2018

Thanks fr the good share




Reply With Quote
(#5)
Old
Guna676 Guna676 is offline
TMR Member
Points: 1,434, Level: 10
Points: 1,434, Level: 10 Points: 1,434, Level: 10 Points: 1,434, Level: 10
Level up: 43%, 116 Points needed
Level up: 43% Level up: 43% Level up: 43%
Activity: 8.3%
Activity: 8.3% Activity: 8.3% Activity: 8.3%
   
Join Date: Oct 2014
Posts: 334
Rep Power: 7
Guna676 has a spectacular aura aboutGuna676 has a spectacular aura aboutGuna676 has a spectacular aura about
UL: 568.07 gb DL: 106.13 gb Ratio: 5.35
Default 10th-February-2018

thank you sharing




Reply With Quote
(#6)
Old
Josojoso21 Josojoso21 is offline
New TMR'ian
Points: 73, Level: 1
Points: 73, Level: 1 Points: 73, Level: 1 Points: 73, Level: 1
Level up: 23%, 77 Points needed
Level up: 23% Level up: 23% Level up: 23%
Activity: 0%
Activity: 0% Activity: 0% Activity: 0%
   
Join Date: Dec 2017
Posts: 36
Rep Power: 2
Josojoso21 is an unknown quantity at this point
UL: 5.49 gb DL: 3.89 gb Ratio: 1.41
Default 10th-February-2018

thanks tmr !! supereb !! expecting flac or wav in near future




Reply With Quote
(#7)
Old
MasssBabu's Avatar
MasssBabu MasssBabu is offline
TMR Member
Points: 61,305, Level: 76
Points: 61,305, Level: 76 Points: 61,305, Level: 76 Points: 61,305, Level: 76
Level up: 79%, 345 Points needed
Level up: 79% Level up: 79% Level up: 79%
Activity: 99.9%
Activity: 99.9% Activity: 99.9% Activity: 99.9%

I proudly released 132 torrents with 3589 snatches
 
 
Join Date: Sep 2015
Posts: 10,452
Rep Power: 83
MasssBabu has a reputation beyond repute
MasssBabu has a reputation beyond reputeMasssBabu has a reputation beyond reputeMasssBabu has a reputation beyond reputeMasssBabu has a reputation beyond reputeMasssBabu has a reputation beyond reputeMasssBabu has a reputation beyond reputeMasssBabu has a reputation beyond reputeMasssBabu has a reputation beyond reputeMasssBabu has a reputation beyond reputeMasssBabu has a reputation beyond reputeMasssBabu has a reputation beyond reputeMasssBabu has a reputation beyond reputeMasssBabu has a reputation beyond reputeMasssBabu has a reputation beyond reputeMasssBabu has a reputation beyond repute
UL: 3.99 tb DL: 217.23 gb Ratio: 18.80
My Mood: Cool
Default 10th-February-2018

Thanks for the good share




Reply With Quote
(#8)
Old
Minnal's Avatar
Minnal Minnal is offline
Quality Releaser
Points: 39,254, Level: 61
Points: 39,254, Level: 61 Points: 39,254, Level: 61 Points: 39,254, Level: 61
Level up: 16%, 1,096 Points needed
Level up: 16% Level up: 16% Level up: 16%
Activity: 99.7%
Activity: 99.7% Activity: 99.7% Activity: 99.7%

I proudly released 139 torrents with 1954 snatches
 
 
Join Date: Oct 2014
Posts: 5,023
Rep Power: 51
Minnal has a reputation beyond repute
Minnal has a reputation beyond reputeMinnal has a reputation beyond reputeMinnal has a reputation beyond reputeMinnal has a reputation beyond reputeMinnal has a reputation beyond reputeMinnal has a reputation beyond repute
UL: 6.07 tb DL: 3.76 tb Ratio: 1.61
My Mood: Fine
Default 10th-February-2018

Thanks for the share.




Reply With Quote
(#9)
Old
raj&raj raj&raj is offline
TMR Member
Points: 1,567, Level: 11
Points: 1,567, Level: 11 Points: 1,567, Level: 11 Points: 1,567, Level: 11
Level up: 6%, 283 Points needed
Level up: 6% Level up: 6% Level up: 6%
Activity: 9.1%
Activity: 9.1% Activity: 9.1% Activity: 9.1%
   
Join Date: Mar 2016
Posts: 218
Rep Power: 4
raj&raj has a spectacular aura aboutraj&raj has a spectacular aura about
UL: 7.33 gb DL: 9.24 gb Ratio: 0.79
Default 10th-February-2018

Quote:
Originally Posted by Subbu2000 View Post
Iravukku Aayiram Kangal (2018) - Arulnithi in - Tamil - MP3 Songs - CBR - 320 kbps - Team TMR



MOVIE INFO

Starring: Arulnithi, Ajmal, Mahima Nambiar, Vidya Pradeep
Directed by: Mu. Maran
Music by: Sam CS
Produced by: G. Dilli Babu
Country: India
Language: Tamil
Year: 2018


MEDIA INFO

Code:
Iravukku Aayiram Kangal (2018) - Arulnithi in -  Tamil - MP3 Songs - CBR - 320 kbps - Team TMR\Uyir Uruvaatha.mp3
Format                                   : MPEG Audio
File size                                : 9.66 MiB
Duration                                 : 4 min 13 s
Overall bit rate mode                    : Constant
Overall bit rate                         : 320 kb/s
Writing library                          : LAME3.99r

Audio
Format                                   : MPEG Audio
Format version                           : Version 1
Format profile                           : Layer 3
Mode                                     : Joint stereo
Duration                                 : 4 min 13 s
Bit rate mode                            : Constant
Bit rate                                 : 320 kb/s
Channel(s)                               : 2 channels
Sampling rate                            : 44.1 kHz
Compression mode                         : Lossy
Stream size                              : 9.66 MiB (100%)
Writing library                          : LAME3.99r
Encoding settings                        : -m j -V 4 -q 3 -lowpass 20.5
TRACK INFO

Yean Penne Neeyum
Artists: Haricharan

Yea Pa Yeppappa
Artists: Sam C.S., Swagatha S. Krishnan

Winds Of The Darkest Hour
Artists: Chennai Orchestra

Uyir Uruvaatha
Artists: D. Sathyaprakash, Chinmayi Sripaada

Nights Of Neverland
Artists: Sam C.S., Chennai Orchestra
Hit Super Hit




Reply With Quote
(#10)
Old
Jishnumale Jishnumale is offline
TMR Member
Points: 1,318, Level: 9
Points: 1,318, Level: 9 Points: 1,318, Level: 9 Points: 1,318, Level: 9
Level up: 84%, 32 Points needed
Level up: 84% Level up: 84% Level up: 84%
Activity: 0%
Activity: 0% Activity: 0% Activity: 0%
   
Join Date: Feb 2015
Posts: 179
Rep Power: 4
Jishnumale is an unknown quantity at this point
UL: 5.10 gb DL: 5.73 gb Ratio: 0.89
Default 10th-February-2018

thanks for updates




Reply With Quote
Reply

Tags
2018, 320, aayiram, arulnithi, cbr, iravukku, kangal, kbps, mp3, songs, tamil, team, tmr

Thread Tools
Display Modes

Similar Threads
Thread Thread Starter Forum Replies Last Post
Irumbu Thirai (2018) - Vishal in - Tamil - MP3 Songs - CBR - 320 kbps - Team TMR Subbu2000 New Movie Albums 37 12th-November-2018 06:42 PM
Tik Tik Tik (2018) - Jayam Ravi in - Tamil - MP3 Songs - CBR - 320 kbps - Team TMR Subbu2000 New Movie Albums 75 16th-October-2018 10:13 AM
Pakka (2018) - Vikram Prabhu in - Tamil - MP3 Songs - CBR - 320 kbps - Team TMR Subbu2000 New Movie Albums 30 2nd-October-2018 07:39 PM
Kalakalappu 2 (2018) - Sundhar.C in -i Tunes Rip - Tamil - MP3 Songs - CBR - 320 kbps - Team TMR Subbu2000 New Movie Albums 24 2nd-October-2018 05:25 AM
Savarakathi (2018) - Director Ram in - Tamil - MP3 Songs - CBR - 320 kbps - Team TMR Subbu2000 New Movie Albums 22 6th-May-2018 10:19 AM

Posting Rules
You may not post new threads
You may not post replies
You may not post attachments
You may not edit your posts

BB code is On
Smilies are On
[IMG] code is On
HTML code is Off




Powered by vBulletin® Version 3.8.7
Copyright ©2000 - 2019, vBulletin Solutions, Inc.
Ad Management plugin by RedTyger