TAMILMOVIEROCKERS
Ticket Torrents

BitCoin Donation Here

BTC Donation : 15YBdAuhfkPPR3fVYnQa8DT4WL6SWaT6Y5

Bitcoin Cash : qpc945q8q6jdzt4d43jye03r6a8q978qlcy5fawg88

Go Back   TAMILMOVIEROCKERS > -: Other Releases :- > Malayalam Releases > Free Leech
Reload this Page Manichithrathazhu (1993) Malayalam 720p HDRip x264 AAC ESubs MyRipsRG - 1GB
Reply
 
Thread Tools Display Modes
(#31)
Old
Yadukrishnan Yadukrishnan is offline
TMR Member
Points: 1,077, Level: 8
Points: 1,077, Level: 8 Points: 1,077, Level: 8 Points: 1,077, Level: 8
Level up: 64%, 73 Points needed
Level up: 64% Level up: 64% Level up: 64%
Activity: 0%
Activity: 0% Activity: 0% Activity: 0%

   
Join Date: Nov 2016
Posts: 147
Rep Power: 3
Yadukrishnan is an unknown quantity at this point
UL: 5.85 gb DL: 7.52 gb Ratio: 0.78
My Mood: Amused
Thumbs up Thanks for the film - 23rd-February-2019

Thanks for Manichithrathaazhu




Reply With Quote
(#32)
Old
Msuri Msuri is offline
New TMR'ian
Points: 1,248, Level: 9
Points: 1,248, Level: 9 Points: 1,248, Level: 9 Points: 1,248, Level: 9
Level up: 49%, 102 Points needed
Level up: 49% Level up: 49% Level up: 49%
Activity: 0%
Activity: 0% Activity: 0% Activity: 0%

   
Join Date: Nov 2015
Posts: 19
Rep Power: 4
Msuri is an unknown quantity at this point
UL: 5.26 gb DL: 6.57 gb Ratio: 0.80
Default 26th-February-2019

thanks.....




Reply With Quote
(#33)
Old
Snku123 Snku123 is offline
New TMR'ian
Points: 528, Level: 5
Points: 528, Level: 5 Points: 528, Level: 5 Points: 528, Level: 5
Level up: 78%, 22 Points needed
Level up: 78% Level up: 78% Level up: 78%
Activity: 0%
Activity: 0% Activity: 0% Activity: 0%

   
Join Date: Sep 2017
Posts: 3
Rep Power: 2
Snku123 is an unknown quantity at this point
UL: 5.34 gb DL: 0.00 b Ratio: -
Default 26th-February-2019

Quote:
Originally Posted by AravindNandu View Post
Manichithrathazhu (1993) Malayalam 720p HDRip x264 AAC ESubs MyRipsRG



-Rip Info-

Video - x264 (1200x720)

Audio - AAC 2.0 64Kbps

Subtitles - Softcoded (muxed)

Chapters - N/A




-Screenshots-

Click to enlarge



-MediaInfo-

Code:
Format                      : Matroska
Format version              : Version 4
File size                   : 1.03 GiB
Duration                    : 2 h 29 min
Overall bit rate            : 987 kb/s
Encoded date                : UTC 2018-12-03 14:06:23
Writing application         : mkvmerge v28.2.0 ('The Awakening') 32-bit
Writing library             : libebml v1.3.6 + libmatroska v1.4.9

Video
ID                          : 1
Format                      : AVC
Format/Info                 : Advanced Video Codec
Format profile              : High@L4.1
Format settings             : CABAC / 4 Ref Frames
Format settings, CABAC      : Yes
Format settings, ReFrames   : 4 frames
Codec ID                    : V_MPEG4/ISO/AVC
Duration                    : 2 h 29 min
Bit rate                    : 923 kb/s
Width                       : 1 200 pixels
Height                      : 720 pixels
Display aspect ratio        : 5:3
Frame rate mode             : Constant
Frame rate                  : 25.000 FPS
Color space                 : YUV
Chroma subsampling          : 4:2:0
Bit depth                   : 8 bits
Scan type                   : Progressive
Bits/(Pixel*Frame)          : 0.043
Stream size                 : 989 MiB (94%)
Writing library             : x264 core 155 r2901 7d0ff22
Default                     : Yes
Forced                      : No

Audio
ID                          : 2
Format                      : AAC LC
Format/Info                 : Advanced Audio Codec Low Complexity
Codec ID                    : A_AAC-2
Duration                    : 2 h 29 min
Bit rate                    : 61.4 kb/s
Channel(s)                  : 2 channels
Channel layout              : L R
Sampling rate               : 48.0 kHz
Frame rate                  : 46.875 FPS (1024 SPF)
Compression mode            : Lossy
Stream size                 : 65.8 MiB (6%)
Language                    : Malayalam
Default                     : Yes
Forced                      : No

Text
ID                          : 3
Format                      : UTF-8
Codec ID                    : S_TEXT/UTF8
Codec ID/Info               : UTF-8 Plain Text
Duration                    : 2 h 26 min
Bit rate                    : 49 b/s
Count of elements           : 1269
Stream size                 : 52.9 KiB (0%)
Language                    : English
Default                     : Yes
Forced                      : No

Source - Untouched WEB HD for video and DVD9 for subtitles

Encoded by MyRipsRG

Please comment on the quality and provide seeding help
very good




Reply With Quote
(#34)
Old
Wingzero Wingzero is offline
New TMR'ian
Points: 19, Level: 1
Points: 19, Level: 1 Points: 19, Level: 1 Points: 19, Level: 1
Level up: 37%, 31 Points needed
Level up: 37% Level up: 37% Level up: 37%
Activity: 0%
Activity: 0% Activity: 0% Activity: 0%

   
Join Date: Feb 2019
Posts: 6
Rep Power: 1
Wingzero is an unknown quantity at this point
UL: 5.00 gb DL: 15.23 gb Ratio: 0.33
My Mood: Amused
Default 1st-March-2019

Thank you




Reply With Quote
(#35)
Old
Jisri Jisri is offline
TMR Member
Points: 887, Level: 7
Points: 887, Level: 7 Points: 887, Level: 7 Points: 887, Level: 7
Level up: 69%, 63 Points needed
Level up: 69% Level up: 69% Level up: 69%
Activity: 50.0%
Activity: 50.0% Activity: 50.0% Activity: 50.0%

   
Join Date: May 2017
Posts: 153
Rep Power: 3
Jisri is an unknown quantity at this point
UL: 6.85 gb DL: 7.81 gb Ratio: 0.88
Default 28th-April-2019

Thanks and Regards broo




Reply With Quote
(#36)
Old
KingMaker@007 KingMaker@007 is offline
TMR Member
Points: 917, Level: 7
Points: 917, Level: 7 Points: 917, Level: 7 Points: 917, Level: 7
Level up: 84%, 33 Points needed
Level up: 84% Level up: 84% Level up: 84%
Activity: 0%
Activity: 0% Activity: 0% Activity: 0%

I proudly released 1 torrents with 1 snatches
 
 
Join Date: Jan 2018
Posts: 151
Rep Power: 2
KingMaker@007 will become famous soon enough
UL: 60.72 gb DL: 27.07 gb Ratio: 2.24
My Mood: Aggressive
Default 29th-April-2019

THanks for the share




Reply With Quote
(#37)
Old
Carthi7 Carthi7 is offline
TMR Member
Points: 754, Level: 7
Points: 754, Level: 7 Points: 754, Level: 7 Points: 754, Level: 7
Level up: 2%, 196 Points needed
Level up: 2% Level up: 2% Level up: 2%
Activity: 50.0%
Activity: 50.0% Activity: 50.0% Activity: 50.0%

   
Join Date: Sep 2017
Posts: 122
Rep Power: 2
Carthi7 is an unknown quantity at this point
UL: 44.25 gb DL: 22.58 gb Ratio: 1.96
Default 1st-May-2019

thanks a lot




Reply With Quote
(#38)
Old
Deepsaran Deepsaran is offline
TMR Member
Points: 727, Level: 6
Points: 727, Level: 6 Points: 727, Level: 6 Points: 727, Level: 6
Level up: 89%, 23 Points needed
Level up: 89% Level up: 89% Level up: 89%
Activity: 50.0%
Activity: 50.0% Activity: 50.0% Activity: 50.0%

   
Join Date: Oct 2017
Posts: 121
Rep Power: 2
Deepsaran is an unknown quantity at this point
UL: 8.05 gb DL: 10.04 gb Ratio: 0.80
My Mood: Cheerful
Default 2 Weeks Ago

Thanks for the upload




Reply

Tags
1993, 1gb, 720p, aac, esubs, hdrip, malayalam, manichithrathazhu, mohanlal, myripsrg, shobhana, suresh gopi, x264

Thread Tools
Display Modes

Similar Threads
Thread Thread Starter Forum Replies Last Post
Ratsasan (2018) 720p WEB-HDRip x264 AAC5.1 ESubs - 1.2GB - MyRipsRG AravindNandu Web HD/ Rips (Free Leech) 66 24th-March-2019 10:07 AM
Iraivi (2016) - 720p - WEB-HDRip - x264 - AAC - 5.1 - ESubs - 1.3GB - MyRipsRG AravindNandu Web HD/ Rips (Free Leech) 30 19th-December-2018 12:20 PM
Aruvi (2017).Tamil.WEB-HDRip.720p.x264.AAC.Esubs - MyRipsRG - 999MB AravindNandu Web HD/ Rips (Free Leech) 42 5th-July-2018 07:49 AM
Kasaba (2016)-Malayalam-720p-DVDRip-x264-AC3-DD5.1-ESubs - MyRipsRG AravindNandu DVD-Rips 42 25th-June-2018 07:17 AM
Maragadha Naanayam (2017) Tamil 720p HDRip x264 AAC HC-ESubs MyRipsRG AravindNandu Web HD/ Rips (Free Leech) 50 19th-June-2018 12:43 PM

Posting Rules
You may not post new threads
You may not post replies
You may not post attachments
You may not edit your posts

BB code is On
Smilies are On
[IMG] code is On
HTML code is Off




Powered by vBulletin® Version 3.8.7
Copyright ©2000 - 2019, vBulletin Solutions, Inc.
Ad Management plugin by RedTyger